#TITLE:Zi Ran Er Ran;
#SUBTITLE:;
#ARTIST:Rainie Yang;
#TITLETRANSLIT:Zi Ran Er Ran;
#SUBTITLETRANSLIT:;
#ARTISTTRANSLIT:Duogn Thua Lam;
#CREDIT:Thu Hai , 10-11-2008;
#BANNER:Zi Ran Er Ran-bn.png;
#BACKGROUND:Zi Ran Er Ran-bg.png;
#LYRICSPATH:;
#CDTITLE:pm4cd.png;
#MUSIC:Zi Ran Er Ran.mp3;
#OFFSET:-0.380;
#SAMPLESTART:53.980;
#SAMPLELENGTH:20.000;
#SELECTABLE:YES;
#BPMS:0.000=150.020,242.000=75.020,242.500=150.020,245.500=75.020,246.000=150.020,249.000=75.020,249.500=150.020,252.500=75.019,253.000=150.020;
#STOPS:;
#BGCHANGES:;
// cache tags:
#FIRSTBEAT:8.000;
#LASTBEAT:638.000;
#SONGFILENAME:Songs/Music V.I.P ^_^/Zi Ran Er Ran/Zi Ran Er Ran.sm;
#HASMUSIC:1;
#HASBANNER:1;
#MUSICLENGTH:263.758;
// end cache tags

//---------------dance-single - ----------------
#NOTES:
     dance-single:
     :
     Hard:
     20:
     1.000,1.000,1.000,0.152,1.000,1902.000,381.000,40.000,0.000,141.000:
0000
0000
0000
0000
,
0000
0000
0000
0000
,
0101
0010
1100
0010
1001
0010
1100
0000
,
1001
0010
0101
0010
1100
0010
1001
0000
,
0011
0100
1010
0100
1001
0100
0011
0000
,
1010
0100
1001
0100
0011
0100
1001
0000
,
0111
1000
0110
1000
0101
1000
0011
0100
,
1010
0000
0001
0000
1100
0000
0001
0000
0110
0000
0001
0000
1010
0000
1000
0100
,
0011
0100
1010
0100
1001
0100
0011
0100
,
2000
0010
0100
0010
,
3111
1000
0110
0001
0010
0100
0011
1000
,
0001
0010
0101
0010
0100
1000
1001
0010
,
0100
1000
1100
0001
0010
0001
0101
0010
,
0100
1000
1001
0010
0100
1000
1100
0100
,
0010
0001
0101
0010
0001
1000
0110
1000
,
0010
1000
0101
0010
0100
0001
1100
0010
,
0001
0001
0101
1000
1000
1000
1010
0100
,
0002
0000
0010
0100
0010
0000
0100
0000
1000
0000
0100
0010
0100
0000
1000
0000
,
1113
0001
1100
0010
0100
0001
1010
0100
,
0010
0001
1001
0100
0010
1000
0110
0001
,
1000
0100
1010
0100
0010
0001
1001
0010
,
0001
0100
0011
1000
0010
0100
1010
0001
,
0100
0010
0101
1000
0001
0010
1100
0001
,
1000
0100
0011
1000
0001
0010
0101
0010
,
1000
0000
0100
0000
1010
0000
0001
0010
0001
0000
1100
0000
1100
0000
0001
0000
,
1000
0000
0010
0000
1010
0000
1000
0100
1000
0000
0010
0000
1001
0000
0010
0000
,
1102
0010
0100
1000
1100
1100
0010
1000
,
0110
1000
0010
0100
1010
1010
0100
1000
,
0123
1000
0100
0001
1001
1001
0100
1000
,
0101
1000
0100
0001
1100
1200
0000
0000
,
1331
0010
1100
0010
1001
0010
1100
0010
,
0101
1000
0011
1000
0110
0110
0101
1000
,
0121
0000
1100
0000
0101
0000
1100
2132
,
0010
0000
0100
0000
0010
0100
0010
0100
0010
0000
0000
0000
0100
0000
0000
0000
,
3113
1000
0100
0010
0001
0100
0010
0001
1000
0100
0001
1000
0010
0001
1000
0100
,
0010
0100
1000
0001
0010
0100
1000
0001
0010
1000
0001
0100
1000
0001
0010
0100
,
1001
0100
0010
0001
0010
0001
1000
0100
1000
0100
0010
0100
1000
0100
0010
0001
,
0010
0100
0010
0001
0010
0100
1000
0100
0010
0001
0010
0100
0010
0100
1000
0100
,
1010
0100
0010
0001
0001
0010
0100
1000
1000
0100
0010
0001
0001
0010
0100
1000
,
1000
0100
0010
0001
0001
0010
0100
1000
1000
0100
0010
0001
0001
0010
0100
1000
,
0101
0010
0100
1000
1000
0100
0010
0100
0100
1000
0100
0010
0010
0001
0010
0100
,
0100
0010
0100
1000
1000
0100
0010
0100
0100
1000
0100
0010
0010
0001
0010
0001
,
1101
0010
0100
0010
0001
0100
0010
0001
1000
0100
0001
1000
0010
0001
1000
0100
,
0010
0100
1000
0001
0010
0100
1000
0001
0010
1000
0001
0100
1000
0001
0010
0100
,
1001
0100
0010
0001
0010
0001
1000
0100
1000
0100
0010
0100
1000
0100
0010
0001
,
0010
0100
0010
0001
0010
0100
1000
0100
0010
0001
0010
0100
0010
0100
1000
0100
,
1011
0100
0010
0001
0001
0010
0100
1000
1000
0100
0010
0001
0001
0010
0100
1000
,
1000
0100
0010
0001
0001
0010
0100
1000
1000
0100
0010
0001
0001
0010
0100
1000
,
1101
0010
0100
1000
1000
0100
0010
0100
0100
1000
0100
0010
0010
0001
0010
0100
,
1101
0010
0101
1000
1010
0100
0010
0100
0100
1000
0100
0010
0010
0001
0010
0001
,
0200
0000
0010
0000
0001
0000
0000
0000
0010
0000
1000
0010
0001
0000
0010
0000
,
1000
0010
0001
0000
1000
0000
0001
0000
0011
0000
0000
0000
1000
0000
0000
0000
,
1311
0100
0011
0100
1010
0100
0011
0100
,
1010
0000
0010
0000
1100
0000
0010
0000
0101
0000
0010
0001
1100
0000
0010
0000
,
0101
1000
0011
1000
0110
1000
0011
1000
,
0110
0000
0001
0000
1100
0000
0001
0000
1010
0000
0001
0010
1100
0000
0001
0000
,
1110
0100
1010
0100
0011
0100
1010
0100
,
0011
0000
1000
0000
0101
0000
1000
0000
0011
0000
1000
0010
0101
0000
1000
0000
,
0011
0010
1100
0010
1001
0010
1100
0010
,
1001
1001
0110
0000
0110
0110
1001
0000
,
1011
0001
1100
0010
0101
0011
0100
1010
,
0100
0011
0100
1010
1100
0010
0101
0010
,
1100
0010
0101
0110
1000
0101
1000
0110
,
1000
0101
1001
0010
0101
0010
1001
0010
,
0001
0010
1100
0100
0001
0100
1010
0100
,
0001
0010
1001
0010
0100
0001
1100
0001
,
0010
1000
0101
0010
1000
0010
0101
0010
,
0001
0000
0100
0010
0101
0000
0010
0000
1101
0000
0010
0000
1100
0000
0001
0000
,
0100
1010
1010
0100
0010
0001
1001
0100
,
0010
1000
0110
0001
1000
0100
1010
0100
,
0010
1001
1001
0010
0001
0100
0011
1000
,
0010
0100
1010
0001
0100
0010
0101
1000
,
0001
1100
1100
0001
1000
0100
0011
1000
,
0001
0000
0010
0000
0101
0000
0010
0000
1000
0000
0100
0000
1010
0000
0001
0010
,
0001
0000
1100
0000
1100
0000
0001
0000
1000
0000
0010
0000
1010
0000
1000
0100
,
1000
0010
1001
0010
1102
0010
0100
1100
,
1100
0000
0000
1100
0000
0000
1100
0000
0000
0000
0000
0000
0100
0000
1010
0000
,
1010
1010
0100
1000
0123
1000
0100
0001
,
1001
1001
0100
1000
0101
1000
0100
0001
,
1100
1200
0000
0000
1331
0010
1100
0010
,
1001
0010
1100
0010
0111
1000
0011
1000
,
0110
0110
0101
1020
0000
1100
1100
1000
,
0101
0000
0001
0000
1100
0000
2132
0000
0010
0100
0010
0000
0100
0000
0000
0000
,
0110
0000
0110
0000
0110
0000
0000
0000
3113
1000
0100
0010
0001
0100
0010
0001
,
1000
0100
0001
1000
0010
0001
1000
0100
0010
0100
1000
0001
0010
0100
1000
0001
,
0010
1000
0001
0100
1000
0001
0010
0100
1001
0100
0010
0001
0010
0001
1000
0100
,
1000
0100
0010
0100
1000
0100
0010
0001
0010
0100
0010
0001
0010
0100
1000
0100
,
0010
0001
0010
0100
0010
0100
1000
0100
1010
0100
0010
0001
0001
0010
0100
1000
,
1000
0100
0010
0001
0001
0010
0100
1000
1000
0100
0010
0001
0001
0010
0100
1000
,
1000
0100
0010
0001
0001
0010
0100
1000
0101
0010
0100
1000
1000
0100
0010
0100
,
0100
1000
0100
0010
0010
0001
0010
0100
0100
0010
0100
1000
1000
0100
0010
0100
,
0100
1000
0100
0010
0010
0001
0010
0001
1101
0010
0100
0010
0001
0100
0010
0001
,
1000
0100
0001
1000
0010
0001
1000
0100
0010
0100
1000
0001
0010
0100
1000
0001
,
0010
1000
0001
0100
1000
0001
0010
0100
1001
0100
0010
0001
0010
0001
1000
0100
,
1000
0100
0010
0100
1000
0100
0010
0001
0010
0100
0010
0001
0010
0100
1000
0100
,
0010
0001
0010
0100
0010
0100
1000
0100
1011
0100
0010
0001
0001
0010
0100
1000
,
1000
0100
0010
0001
0001
0010
0100
1000
1000
0100
0010
0001
0001
0010
0100
1000
,
1000
0100
0010
0001
0001
0010
0100
1000
1101
0010
0100
1000
1000
0100
0010
0100
,
0100
1000
0100
0010
0010
0001
0010
0100
1101
0010
0101
1000
1010
0100
0010
0100
,
0100
1000
0100
0010
0010
0001
0010
0001
1210
0001
0010
0001
1000
0010
0001
1000
,
0010
1000
0001
0010
0001
1000
0010
1000
0321
1000
0100
0001
0100
0001
1000
0100
,
1000
0100
0001
0100
0001
1000
0100
0001
2130
0010
0001
0010
0100
0001
0010
0001
,
0100
0010
0100
0010
0001
0010
0100
0001
3120
0001
0100
1000
0001
0100
0001
1000
,
0100
0001
1000
0100
1000
0001
1000
0100
1132
0010
0100
1000
0010
0100
0010
0100
,
1000
0100
0010
1000
0100
1000
0010
0100
1023
0100
0001
1000
0100
0001
1000
0100
,
1000
0001
0100
1000
0001
0100
0001
1000
0132
1000
0100
0010
1000
0100
1000
0010
,
1000
0010
1000
0100
1000
0010
1000
0010
2103
0010
0001
0001
0001
0100
0011
0100
,
0011
0100
0010
0001
0010
0100
0010
0001
3111
1000
0100
0010
1001
0100
0010
0001
,
1010
0100
0001
1000
0110
0001
1000
0100
0011
0100
1000
0001
1010
0100
1000
0001
,
0110
1000
0001
0100
1010
0001
0010
0100
1001
0100
0010
0001
0110
0001
1000
0100
,
1001
0100
0010
0100
1010
0100
0010
0001
1010
0100
0010
0001
1010
0100
1000
0100
,
1010
0001
0010
0100
0011
0100
1000
0100
1011
0100
0010
0001
0101
0010
0100
1000
,
1010
0100
0010
0001
0101
0010
0100
1000
1011
0100
0010
0001
1001
0010
0100
1000
,
1001
0100
0010
0001
1001
0010
0100
1000
0112
0010
0100
1000
1010
0100
0010
0100
,
0110
1000
0010
0010
1010
0100
0010
0100
2113
0010
0100
0001
0011
0100
0010
0100
,
0101
0010
0001
0001
0001
0010
0100
0100
3100
0000
0010
0000
0100
0000
0010
0000
,
0100
0010
0100
0010
0200
0000
0000
0000
,
0000
0000
0000
0000
0000
0000
0000
0000
1301
0100
0010
0001
0010
0100
1000
0100
,
0010
0001
0010
0100
1000
0100
0010
0001
0010
0100
1000
0100
0010
0001
0010
0100
,
1000
0100
0010
0001
0010
0100
1000
0100
1001
0010
0100
1000
0100
0010
0001
0010
,
0100
1000
0100
0010
0001
0010
0100
1000
0100
0010
0001
0010
0100
1000
0100
0010
,
0001
0010
0100
1000
0100
0010
0001
0010
1001
0100
0010
0001
0010
0100
1000
0100
,
0010
0001
0010
0100
1000
0100
0010
0001
0010
0100
1000
0100
0010
0001
0010
0100
,
1000
0100
0010
0001
0010
0100
1000
0100
1001
0010
0100
1000
0100
0010
0001
0010
,
0100
1000
0100
0010
0001
0010
0100
1000
0112
0000
2000
0000
0000
0000
0110
0110
,
3113
0000
0110
0000
0110
0000
0000
0000
0111
1000
0100
0010
1001
0100
0010
0001
,
1010
0100
0001
1000
0110
0001
1000
0100
0011
0100
1000
0001
1010
0100
1000
0001
,
0110
1000
0001
0100
1010
0001
0010
0100
1001
0100
0010
0001
0110
0001
1000
0100
,
1001
0100
0010
0100
1010
0100
0010
0001
1010
0100
0010
0001
1010
0100
1000
0100
,
1010
0001
0010
0100
0011
0100
1000
0100
1011
0100
0010
0001
0101
0010
0100
1000
,
1010
0100
0010
0001
0101
0010
0100
1000
1010
0100
0010
0001
0101
0010
0100
1000
,
1010
0100
0010
0001
0101
0010
0100
1000
0111
0010
0100
1000
1001
0100
0010
0100
,
0110
1000
0100
0010
1010
0001
0010
0100
1101
0010
0100
1000
1001
0100
0010
0100
,
0110
1000
0100
0010
0110
0001
0010
0001
1101
0010
0100
0010
1001
0100
0010
0001
,
1100
0100
0001
1000
0110
0001
1000
0100
1010
0100
1000
0001
0011
0100
1000
0001
,
0110
1000
0001
0100
1010
0001
0010
0100
1001
0100
0010
0001
1010
0001
1000
0100
,
1010
0100
0010
0100
1001
0100
0010
0001
1010
0100
0010
0001
0011
0100
1000
0100
,
1010
0001
0010
0100
1001
0100
1000
0100
1011
0100
0010
0001
1001
0010
0100
1000
,
1001
0100
0010
0001
1001
0010
0100
1000
1001
0100
0010
0001
1001
0010
0100
1000
,
1001
0100
0010
0001
1001
0010
0100
1000
1101
0010
0100
1000
1010
0100
0010
0100
,
0101
1000
0100
0010
0110
0001
0010
0100
1101
0010
0101
1000
1010
0100
0010
0100
,
0110
1000
0100
0010
1010
0001
0010
0001
1210
0001
0010
0001
1010
0010
0001
1000
,
0011
1000
0001
0010
1001
1000
0010
1000
0321
1000
0100
0001
1100
0001
1000
0100
,
1001
0100
0001
0100
0101
1000
0100
0001
2130
0010
0001
0010
0101
0001
0010
0001
,
0110
0010
0100
0010
0101
0010
0100
0001
3120
0001
0100
1000
0101
0100
0001
1000
,
1100
0001
1000
0100
1001
0001
1000
0100
1132
0010
0100
1000
0110
0100
0010
0100
,
1010
0100
0010
1000
0110
1000
0010
0100
1023
0100
0001
1000
0101
0001
1000
0100
,
1001
0001
0100
1000
0101
0100
0001
1000
1132
0000
0010
0000
1100
0000
1100
0000
,
0000
0110
0110
1123
0000
1001
1001
1100
,
0000
0000
0001
0001
0001
0000
0000
0000
1030
0100
0010
0001
0010
0100
1000
0100
,
0010
0001
0010
0100
1000
0100
0010
0001
0010
0100
1000
0100
0010
0001
0010
0100
,
1000
0100
0010
0001
0010
0100
1000
0100
1001
0010
0100
1000
1000
0100
0010
0001
,
0001
0010
0100
1000
1000
0100
0010
0001
0001
0010
0100
1000
1000
0100
0010
0001
,
0001
0010
0100
1000
1000
0100
0010
0001
1110
0001
0010
0100
1000
0100
0010
0001
,
1010
0100
1000
0100
0010
0001
0010
0100
1000
0100
0010
0001
0010
0100
1000
0100
,
0010
0001
0010
0100
1000
0100
0010
0001
1010
0100
1000
0100
0010
0001
0010
0100
,
1010
0100
0010
0001
0010
0100
1000
0100
1011
0100
0010
0001
1010
0100
1000
0100
,
0011
0100
1000
0100
1001
0010
0100
1000
2222
0000
0000
0000
0000
0000
0000
0000
,
0000
0000
0000
0000
,
0000
0000
3333
0000
;
